<?xml version="1.0" standalone="no"?>
<!DOCTYPE svg PUBLIC "-//W3C//DTD SVG 1.1//EN" "http://www.w3.org/Graphics/SVG/1.1/DTD/svg11.dtd" >
<svg xmlns="http://www.w3.org/2000/svg">
<metadata>Generated by IcoMoon</metadata>
<defs>
<font id="icomoon" horiz-adv-x="1024">
<font-face units-per-em="1024" ascent="960" descent="-64" />
<missing-glyph horiz-adv-x="1024" />
<glyph unicode="&#x20;" horiz-adv-x="512" d="" />
<glyph unicode="&#xe900;" glyph-name="phone" d="M716.8 952.123h-409.6c-66.954 0-118.154-51.2-118.154-114.215v-771.938c0-63.015 55.138-114.215 118.154-114.215h413.538c66.954 0 118.154 51.2 118.154 114.215v768c-3.938 63.015-55.138 118.154-122.092 118.154zM244.185 719.754h531.692v-543.508h-531.692v543.508zM307.2 889.108h413.538c31.508 0 59.077-23.631 59.077-55.138v-55.138h-535.631v55.138c0 31.508 27.569 55.138 63.015 55.138zM716.8 6.892h-409.6c-31.508 0-59.077 23.631-59.077 55.138v55.138h531.692v-55.138c0-31.508-27.569-55.138-63.015-55.138z" />
<glyph unicode="&#xe901;" glyph-name="star" d="M512 934.4l119.467-366.933h388.267l-311.467-226.133 119.467-366.933-315.733 221.867-311.467-226.133 119.467 366.933-311.467 226.133h388.267l115.2 371.2z" />
<glyph unicode="&#xe902;" glyph-name="truck" d="M996.693 509.44c-3.413 34.133-30.72 61.44-61.44 64.853l-160.427 13.653-146.773 116.053c-6.827 6.827-17.067 10.24-27.307 10.24h-191.147c-27.307 0-51.2-27.307-51.2-58.027v-68.267h-351.573v-262.827l105.813-34.133c0-61.44 51.2-109.227 109.227-109.227s109.227 47.787 109.227 105.813h385.707c3.413-58.027 51.2-105.813 109.227-105.813 61.44 0 109.227 47.787 109.227 105.813h44.373c10.24 0 20.48 3.413 23.893 10.24 6.827 6.827 10.24 20.48 10.24 30.72l-17.067 180.907zM225.28 236.373c-34.133 0-61.44 27.307-61.44 58.027 0 34.133 27.307 58.027 61.44 58.027s61.44-27.307 61.44-58.027c0-34.133-27.307-58.027-61.44-58.027zM826.027 236.373c-34.133 0-61.44 27.307-61.44 58.027 0 34.133 27.307 58.027 61.44 58.027s61.44-27.307 61.44-58.027c-3.413-34.133-27.307-58.027-61.44-58.027zM925.013 342.187c-17.067 37.547-54.613 61.44-98.987 61.44s-81.92-27.307-98.987-64.853h-399.36c-17.067 37.547-54.613 64.853-98.987 64.853s-81.92-27.307-98.987-61.44l-68.267 20.48v170.667h348.16v119.467c0 3.413 0 6.827 0 6.827h187.733l157.013-122.88 174.080-17.067c6.827 0 13.653-10.24 13.653-20.48l17.067-160.427h-34.133z" />
<glyph unicode="&#xe903;" glyph-name="excavator" d="M766.234 462.124l-45.903-17.655v-3.531h-148.303l-45.903 222.455c-7.062 42.372-45.903 70.621-84.745 70.621h-102.4c-49.434 0-88.276-38.841-88.276-84.745v-91.807h-127.117v91.807h-52.966v-95.338c-35.31-10.593-60.028-42.372-60.028-81.214v-116.524c0-14.124 3.531-28.248 10.593-42.372-7.062-14.124-10.593-31.779-10.593-45.903 0-63.559 52.966-112.993 116.524-112.993s116.524 52.966 116.524 112.993c0 0 0 3.531 0 3.531h130.648c0 0 0-3.531 0-3.531 0-63.559 52.966-112.993 116.524-112.993s116.524 52.966 116.524 112.993-52.966 112.993-116.524 112.993c-42.372 0-81.214-24.717-102.4-60.028h-158.897c-21.186 35.31-56.497 60.028-102.4 60.028-24.717 0-45.903-7.062-63.559-17.655v109.462c0 17.655 14.124 31.779 35.31 31.779h176.552l268.359-116.524c3.531 0 7.062-3.531 10.593-3.531h169.49v-109.462c0-31.779 14.124-67.090 38.841-88.276 24.717-24.717 56.497-35.31 91.807-35.31h134.179l21.186 45.903-243.641 264.828zM490.814 331.476c35.31 0 63.559-28.248 63.559-63.559s-28.248-63.559-63.559-63.559-67.090 31.779-67.090 63.559 31.779 63.559 67.090 63.559zM127.117 331.476c35.31 0 63.559-28.248 63.559-63.559s-28.248-63.559-63.559-63.559-63.559 28.248-63.559 63.559 28.248 63.559 63.559 63.559zM338.979 684.579h98.869c17.655 0 31.779-10.593 35.31-28.248l42.372-194.207-208.331 91.807v98.869c-3.531 17.655 10.593 31.779 31.779 31.779zM850.979 207.89c-21.186 0-38.841 7.062-52.966 21.186s-21.186 31.779-21.186 52.966v95.338l155.366-169.49h-81.214z" />
<glyph unicode="&#xe904;" glyph-name="down-arrow" d="M506.374 138.549l-506.374 506.374 123.78 123.78 393.846-393.846 382.593 393.846 123.78-123.78-517.626-506.374z" />
<glyph unicode="&#xe905;" glyph-name="check" d="M1004.679 882.717l-589.283-946.717-386.415 386.415 106.264 106.264 251.17-260.83 492.679 792.151 125.585-77.283z" />
<glyph unicode="&#xe906;" glyph-name="cart" d="M810.082-60.493c-59.616 0-105.205 45.589-105.205 105.205s45.589 105.205 105.205 105.205c59.616 0 105.205-45.589 105.205-105.205s-45.589-105.205-105.205-105.205zM810.082 79.781c-21.041 0-35.068-14.027-35.068-35.068s14.027-35.068 35.068-35.068c21.041 0 35.068 14.027 35.068 35.068s-14.027 35.068-35.068 35.068zM329.644-60.493c-59.616 0-105.205 45.589-105.205 105.205s45.589 105.205 105.205 105.205 105.205-45.589 105.205-105.205-49.096-105.205-105.205-105.205zM329.644 79.781c-21.041 0-35.068-14.027-35.068-35.068s14.027-35.068 35.068-35.068c21.041 0 35.068 14.027 35.068 35.068s-17.534 35.068-35.068 35.068zM908.274 220.055h-645.26l-119.233 561.096-21.041 105.205h-122.74v70.137h182.356l35.068-175.342h806.575l-115.726-561.096zM322.63 290.192h529.534l87.671 420.822h-708.384l91.178-420.822z" />
<glyph unicode="&#xe907;" glyph-name="book" d="M955.733 808.838v0c0 0 0 0 0 0s0 0 0 0v0c-53.638 24.381-136.533 43.886-238.933 39.010v0c0 0 0 0 0 0s0 0 0 0v0c-87.771-4.876-160.914-29.257-204.8-48.762-63.39 29.257-131.657 43.886-204.8 48.762-82.895 4.876-160.914-9.752-238.933-39.010-34.133-9.752-58.514-43.886-58.514-82.895v-565.638c0-29.257 14.629-53.638 34.133-73.143 24.381-14.629 53.638-19.505 78.019-9.752 58.514 19.505 117.029 29.257 175.543 24.381 68.267-4.876 131.657-19.505 190.171-48.762v0c9.752-4.876 19.505-4.876 29.257 0 39.010 19.505 107.276 43.886 190.171 48.762 73.143 4.876 131.657-9.752 175.543-24.381v0c58.514-19.505 117.029 24.381 117.029 82.895v565.638c14.629 34.133-9.752 68.267-43.886 82.895zM477.867 135.924c-53.638 19.505-112.152 29.257-165.79 34.133-9.752 0-19.505 0-29.257 0-58.514 0-117.029-9.752-175.543-29.257-4.876 0-9.752 0-14.629 0 0 0-4.876 4.876-4.876 14.629v570.514c0 4.876 4.876 9.752 9.752 14.629 68.267 29.257 136.533 39.010 209.676 34.133 58.514-4.876 117.029-14.629 170.667-39.010v-599.771zM921.6 145.676v0c-53.638 14.629-121.905 29.257-204.8 29.257v0-34.133 39.010c-68.267-4.876-121.905-19.505-165.79-34.133v590.019c39.010 19.505 97.524 34.133 170.667 39.010v0c87.771 4.876 160.914-14.629 209.676-34.133v0c4.876 0 9.752-4.876 9.752-14.629v-565.638c-4.876-14.629-14.629-19.505-19.505-14.629z" />
<glyph unicode="&#xe908;" glyph-name="arrow-left" d="M729.6-64l-512 512 512 512 70.4-70.4-441.6-441.6 441.6-441.6-70.4-70.4z" />
<glyph unicode="&#xe909;" glyph-name="arrow-right" d="M294.4-64l-70.4 70.4 441.6 441.6-441.6 441.6 70.4 70.4 512-512-512-512z" />
<glyph unicode="&#xe90a;" glyph-name="account" d="M512 376.32c160.427 0 290.133 129.707 290.133 293.547 0 160.427-129.707 290.133-290.133 290.133s-290.133-129.707-290.133-290.133c0-163.84 129.707-293.547 290.133-293.547zM512 891.733c122.88 0 221.867-98.987 221.867-221.867s-98.987-225.28-221.867-225.28c-122.88 0-221.867 98.987-221.867 225.28 0 122.88 98.987 221.867 221.867 221.867zM972.8-23.040l-68.267-13.653c-37.547 170.667-95.573 269.653-197.973 331.093-54.613-34.133-139.947-51.2-197.973-51.2s-143.36 17.067-197.973 51.2c-98.987-58.027-157.013-153.6-194.56-317.44l-64.853 17.067c44.373 191.147 119.467 303.787 245.76 372.053l20.48 10.24 17.067-13.653c37.547-30.72 119.467-51.2 174.080-51.2s136.533 20.48 174.080 51.2l17.067 13.653 20.48-10.24c133.12-71.68 208.213-187.733 252.587-389.12z" />
<glyph unicode="&#xe90b;" glyph-name="facebook" d="M267.13 621.635h106.852v102.4c0 44.522 0 115.757 35.617 160.278 31.165 44.522 80.139 75.687 160.278 75.687 133.565 0 186.991-17.809 186.991-17.809l-26.713-160.278c0 0-44.522 13.357-84.591 13.357s-75.687-13.357-75.687-57.878v-120.209h169.183l-13.357-151.374h-155.826v-529.809h-195.896v529.809h-106.852v155.826z" />
<glyph unicode="&#xe90c;" glyph-name="instagram" d="M1019.548 648.348c-4.452 48.974-8.904 97.948-26.713 142.47-35.617 84.591-97.948 133.565-186.991 155.826-40.070 8.904-80.139 13.357-115.757 13.357-4.452 0-4.452 0-8.904 0-111.304 0-222.609 0-338.365 0-8.904 0-22.261 0-31.165-4.452-48.974 0-97.948-8.904-142.47-26.713-84.591-35.617-133.565-97.948-155.826-186.991-8.904-35.617-8.904-75.687-13.357-115.757 0-4.452 0-4.452 0-8.904 0-111.304 0-222.609 0-338.365v0c0-8.904 4.452-22.261 4.452-31.165 0-48.974 8.904-97.948 26.713-142.47 35.617-84.591 97.948-133.565 186.991-155.826 40.070-8.904 80.139-13.357 115.757-13.357 4.452 0 4.452 0 8.904 0h338.365c8.904 0 22.261 4.452 31.165 4.452 48.974 4.452 97.948 8.904 142.47 26.713 84.591 35.617 133.565 97.948 155.826 186.991 8.904 40.070 13.357 80.139 13.357 115.757 0 4.452 0 4.452 0 8.904v338.365c0 8.904-4.452 22.261-4.452 31.165zM926.052 243.2c0-26.713-4.452-48.974-8.904-75.687-17.809-71.235-71.235-115.757-142.47-129.113-44.522-8.904-89.043-8.904-133.565-8.904-57.878 0-120.209 0-178.087 0s-120.209 0-178.087 4.452c-53.426 4.452-102.4 22.261-138.017 62.33-26.713 31.165-40.070 66.783-44.522 102.4-4.452 40.070-4.452 80.139-4.452 120.209 0 57.878 0 120.209 0 178.087s0 120.209 4.452 178.087c0 57.878 17.809 106.852 57.878 142.47 31.165 26.713 66.783 40.070 102.4 44.522 40.070 4.452 80.139 4.452 120.209 4.452 57.878 0 120.209 0 178.087 0s120.209 0 178.087-4.452c53.426-4.452 102.4-22.261 138.017-62.33 26.713-31.165 40.070-66.783 44.522-102.4 4.452-40.070 4.452-80.139 4.452-120.209 0-44.522 0-84.591 0-129.113 0 0 0 0 0 0v0c4.452-66.783 4.452-138.017 0-204.8zM512 710.678c-146.922 0-262.678-115.757-262.678-262.678s115.757-262.678 262.678-262.678c146.922 0 262.678 115.757 262.678 262.678s-115.757 262.678-262.678 262.678zM512 278.817c-93.496 0-169.183 75.687-169.183 169.183s75.687 169.183 173.635 169.183c93.496 0 169.183-75.687 169.183-173.635-4.452-89.043-80.139-164.73-173.635-164.73zM845.913 724.035c0-35.617-26.713-62.33-62.33-62.33s-62.33 26.713-62.33 62.33 26.713 57.878 62.33 57.878v0c35.617 0 62.33-26.713 62.33-57.878z" />
<glyph unicode="&#xe90d;" glyph-name="linkedin" d="M226.133-42.667h-200.533v665.6h200.533v-665.6zM119.467 708.267v0c-72.533 0-119.467 51.2-119.467 115.2s46.933 115.2 119.467 115.2 119.467-51.2 119.467-115.2c4.267-64-42.667-115.2-119.467-115.2zM1024-42.667h-226.133v345.6c0 89.6-34.133 153.6-115.2 153.6-59.733 0-93.867-42.667-106.667-81.067-4.267-12.8-4.267-34.133-4.267-55.467v-362.667h-221.867c0 0 4.267 610.133 0 665.6h221.867v-106.667c12.8 46.933 85.333 110.933 200.533 110.933 140.8 0 251.733-98.133 251.733-302.933v-366.933z" />
<glyph unicode="&#xe90e;" glyph-name="location-pin" d="M480.492 471.631v-338.708h59.077v338.708c122.092 15.754 212.677 114.215 212.677 236.308 0 133.908-110.277 240.246-244.185 240.246-129.969 3.938-240.246-106.338-240.246-236.308 0-122.092 94.523-224.492 212.677-240.246zM512 889.108c102.4 0 185.108-82.708 185.108-181.169s-82.708-181.169-185.108-181.169-185.108 82.708-185.108 185.108c0 98.462 82.708 177.231 185.108 177.231zM913.723 132.923c0-106.338-173.292-189.046-401.723-189.046s-401.723 78.769-401.723 189.046c0 78.769 90.585 141.785 236.308 169.354l11.815-59.077c-110.277-23.631-189.046-66.954-189.046-114.215 0-59.077 145.723-126.031 346.585-126.031s346.585 66.954 346.585 126.031c0 43.323-78.769 90.585-189.046 114.215l11.815 59.077c141.785-27.569 228.431-90.585 228.431-169.354z" />
<glyph unicode="&#xe90f;" glyph-name="location" d="M520.581-58.279l-28.603 28.603c-40.045 34.324-366.123 348.961-366.123 572.067 0 228.827 177.341 417.609 394.726 417.609s394.726-188.782 394.726-417.609c0-217.385-326.078-537.743-366.123-572.067l-28.603-28.603zM520.581 874.19c-171.62 0-308.916-148.737-308.916-331.799 0-143.017 200.223-371.844 308.916-480.536 108.693 108.693 308.916 337.52 308.916 480.536-5.721 183.061-143.017 331.799-308.916 331.799zM520.581 387.933c-97.251 0-177.341 80.089-177.341 177.341s80.089 177.341 177.341 177.341c97.251 0 177.341-80.089 177.341-177.341s-80.089-177.341-177.341-177.341zM520.581 656.804c-51.486 0-91.531-40.045-91.531-91.531s40.045-91.531 91.531-91.531c51.486 0 91.531 40.045 91.531 91.531s-40.045 91.531-91.531 91.531z" />
<glyph unicode="&#xe910;" glyph-name="search" d="M396.387 200.258c-208.103 0-379.871 171.768-379.871 379.871s171.768 379.871 379.871 379.871c208.103 0 379.871-171.768 379.871-379.871s-171.768-379.871-379.871-379.871zM396.387 893.935c-171.768 0-313.806-142.039-313.806-313.806s142.039-313.806 313.806-313.806 313.806 142.039 313.806 313.806-142.039 313.806-313.806 313.806zM987.665 2.065l-277.471 277.471-46.245-46.245 277.471-277.471 46.245 46.245z" />
<glyph unicode="&#xe911;" glyph-name="youtube" d="M709.215 448l-333.748-185.837v371.674l333.748-185.837zM1024 273.541v348.919c0 0 0 166.874-178.252 166.874h-667.496c0 0-178.252 0-178.252-166.874v-348.919c0 0 0-166.874 178.252-166.874h671.289c-3.793 0 174.459 0 174.459 166.874z" />
<glyph unicode="&#xe912;" glyph-name="delete" d="M933.647 797.365h-132.518v168.659h-572.235v-168.659h-138.541v-90.353h72.282v-777.035h692.706v777.035h72.282v90.353zM313.224 875.671h391.529v-78.306h-391.529v78.306zM771.012 20.329h-518.024v686.682h512v-686.682zM349.365 140.8v445.741h90.353v-445.741h-90.353zM674.635 140.8h-84.329v445.741h90.353v-445.741z" />
<glyph unicode="&#xe913;" glyph-name="close" d="M944.873-50.036l-432.873 432.873-432.873-432.873-65.164 65.164 432.873 432.873-432.873 432.873 65.164 65.164 432.873-432.873 432.873 432.873 65.164-65.164-432.873-432.873 432.873-432.873-65.164-65.164z" />
<glyph unicode="&#xe914;" glyph-name="menu" horiz-adv-x="985" d="M984.615 960v-78.769h-984.615v78.769h984.615zM0 408.615h984.615v78.769h-984.615v-78.769zM0-64h984.615v78.769h-984.615v-78.769z" />
<glyph unicode="&#xe915;" glyph-name="right-arrow" d="M315.077-64l-123.78 123.78 393.846 393.846-393.846 382.593 123.78 123.78 506.374-506.374-506.374-517.626z" />
<glyph unicode="&#xe916;" glyph-name="left-arrow" d="M708.923-64l-517.626 517.626 517.626 506.374 123.78-123.78-393.846-382.593 382.593-393.846-112.527-123.78z" />
<glyph unicode="&#xe917;" glyph-name="change" d="M403.394 841.051h315.475c72.404 0 134.465-62.061 134.465-134.465v-336.162l124.121 124.121 46.545-46.545-201.697-201.697-201.697 201.697 46.545 46.545 124.121-124.121v336.162c0 41.374-31.030 72.404-72.404 72.404h-315.475v62.061zM201.697 649.697l201.697-201.697-46.545-46.545-124.121 124.121v-336.162c0-41.374 31.030-72.404 72.404-72.404h315.475v-62.061h-315.475c-72.404 0-134.465 62.061-134.465 134.465v336.162l-124.121-124.121-46.545 46.545 201.697 201.697z" />
<glyph unicode="&#xe918;" glyph-name="minus" d="M1024 373.527h-1024v139.636h1024v-139.636z" />
<glyph unicode="&#xe919;" glyph-name="plus" d="M1024 401.455h-418.909v-465.455h-139.636v465.455h-465.455v139.636h465.455v418.909h139.636v-418.909h418.909v-139.636z" />
<glyph unicode="&#xe91a;" glyph-name="warning" d="M1012.622 83.911l-426.667 802.133c-28.444 56.889-113.778 56.889-142.222 0l-432.356-802.133c-5.689-11.378-11.378-28.444-11.378-39.822s5.689-28.444 11.378-39.822c5.689-11.378 17.067-22.756 28.444-28.444s28.444-11.378 39.822-11.378h864.711c11.378 0 28.444 5.689 39.822 11.378s22.756 17.067 28.444 28.444c5.689 11.378 11.378 28.444 11.378 39.822s-5.689 28.444-11.378 39.822zM546.133 106.667c-11.378-11.378-22.756-17.067-34.133-17.067s-17.067 5.689-28.444 11.378-17.067 11.378-17.067 22.756c-5.689 11.378-5.689 17.067-5.689 28.444s5.689 17.067 11.378 28.444c5.689 5.689 17.067 11.378 28.444 11.378s22.756 0 28.444-5.689c11.378-5.689 17.067-11.378 22.756-17.067s5.689-17.067 5.689-28.444c5.689-17.067 0-28.444-11.378-34.133zM551.822 288.711c0-11.378-5.689-22.756-11.378-28.444s-17.067-11.378-28.444-11.378c-11.378 0-22.756 5.689-28.444 11.378s-11.378 17.067-11.378 28.444l-17.067 312.889c0 5.689 0 17.067 5.689 22.756 0 5.689 5.689 11.378 11.378 17.067s11.378 11.378 17.067 11.378 17.067 5.689 22.756 5.689v0c5.689 0 17.067 0 22.756-5.689s11.378-5.689 17.067-11.378c5.689-5.689 11.378-11.378 11.378-17.067s5.689-17.067 5.689-22.756v0l-17.067-312.889z" />
<glyph unicode="&#xe91b;" glyph-name="cart-bag" d="M775.314 109.714c-47.543 0-85.943-38.4-85.943-87.771s38.4-87.771 85.943-87.771c47.543 0 85.943 38.4 85.943 87.771s-38.4 87.771-85.943 87.771zM775.314-27.429c-27.429 0-49.371 21.943-49.371 51.2s21.943 51.2 49.371 51.2c27.429 0 49.371-21.943 49.371-51.2s-21.943-51.2-49.371-51.2zM363.886 109.714c-47.543 0-85.943-38.4-85.943-87.771s38.4-87.771 85.943-87.771 85.943 38.4 85.943 87.771-38.4 87.771-85.943 87.771zM363.886-27.429c-27.429 0-49.371 21.943-49.371 51.2s21.943 51.2 49.371 51.2 49.371-21.943 49.371-51.2-21.943-51.2-49.371-51.2zM312.686 179.2h521.143l95.086 453.486h-672.914l-29.257 149.943h-144.457v-36.571h115.2l21.943-113.371 93.257-453.486zM883.2 596.114l-78.629-380.343h-462.629l-78.629 380.343h619.886zM592.457 808.229h-36.571v151.771h36.571v-151.771zM758.857 797.257l-29.257 20.114 73.143 106.057 29.257-20.114-73.143-106.057zM394.971 797.257l-67.657 106.057 31.086 20.114 67.657-106.057-31.086-20.114z" />
<glyph unicode="&#xe91c;" glyph-name="email" d="M973.639 787.934c-33.574 29.377-71.344 46.164-117.508 46.164h-688.262c-46.164 0-83.934-16.787-117.508-46.164-29.377-29.377-50.361-71.344-50.361-113.311v-453.246c0-41.967 16.787-83.934 50.361-113.311 29.377-29.377 71.344-46.164 117.508-46.164h688.262c46.164 0 83.934 16.787 117.508 46.164 29.377 29.377 50.361 71.344 50.361 113.311v453.246c-4.197 41.967-20.984 83.934-50.361 113.311zM512 506.754l-402.885 247.607c16.787 8.393 37.77 16.787 58.754 16.787h688.262c20.984 0 41.967-4.197 58.754-16.787l-402.885-247.607zM956.852 674.623v-453.246c0-25.18-12.59-50.361-29.377-67.148s-46.164-29.377-71.344-29.377h-688.262c-25.18 0-50.361 8.393-71.344 29.377-16.787 16.787-29.377 41.967-29.377 67.148v453.246c0 8.393 0 16.787 4.197 25.18l440.656-272.787 440.656 272.787c0-8.393 4.197-16.787 4.197-25.18z" />
<glyph unicode="&#xe91d;" glyph-name="twitter" d="M1024 759.12c-39.196-14.699-78.392-29.397-122.488-34.297 44.096 24.498 78.392 68.593 93.091 117.589-39.196-24.498-88.191-39.196-132.287-53.895-39.196 44.096-93.091 68.593-156.785 68.593-117.589 0-210.679-93.091-210.679-210.679 0-14.699 0-34.297 4.9-48.995-171.483 9.799-323.368 93.091-426.258 220.478-19.598-29.397-29.397-63.694-29.397-102.89 0-73.493 39.196-137.187 93.091-176.383-34.297 0-68.593 9.799-97.99 24.498v0c0-102.89 73.493-186.182 166.584-205.78-29.397-9.799-63.694-9.799-93.091-4.9 14.699-44.096 39.196-78.392 73.493-102.89s78.392-39.196 122.488-39.196c-73.493-63.694-161.684-93.091-259.675-93.091-14.699 0-34.297 0-48.995 4.9 93.091-58.794 205.78-93.091 323.368-93.091 387.062 0 597.742 318.469 597.742 597.742 0 9.799 0 19.598 0 29.397 39.196 24.498 73.493 58.794 102.89 102.89z" />
<glyph unicode="&#xe91e;" glyph-name="play-button" d="M512 960c-282.4 0-512-229.6-512-512s229.6-512 512-512 512 229.6 512 512-229.6 512-512 512zM715.6 430l-298.6-192c-3.6-2.2-7.6-3.4-11.6-3.4-3.6 0-7 0.8-10.2 2.6-6.8 3.8-11.2 11-11.2 18.8v384c0 7.8 4.2 15 11.2 18.8 6.8 3.8 15.2 3.4 21.8-0.8l298.6-192c6-4 9.8-10.6 9.8-18 0-7.2-3.8-14-9.8-18z" />
<glyph unicode="&#xe91f;" glyph-name="shipping-truck" horiz-adv-x="1229" d="M1208.32 407.040l-102.4 307.2c-5.12 15.36-15.36 20.48-30.72 20.48h-225.28v174.080c0 15.36-15.36 30.72-30.72 30.72h-768c-15.36 0-30.72-15.36-30.72-30.72v-819.2c0-15.36 15.36-30.72 30.72-30.72h76.8c15.36-56.32 66.56-102.4 128-102.4s117.76 46.080 128 102.4h455.68c15.36-56.32 66.56-102.4 128-102.4s117.76 46.080 128 102.4h81.92c15.36 0 30.72 15.36 30.72 30.72v307.2c0 5.12 0 5.12 0 10.24zM256 17.92c-40.96 0-71.68 30.72-71.68 71.68s30.72 71.68 71.68 71.68 71.68-30.72 71.68-71.68-30.72-71.68-71.68-71.68zM788.48 704v-583.68h-404.48c-15.36 56.32-66.56 102.4-128 102.4s-117.76-46.080-128-102.4h-46.080v757.76h706.56c0 0 0-174.080 0-174.080zM849.92 673.28h199.68l81.92-245.76h-281.6v245.76zM972.8 17.92c-40.96 0-71.68 30.72-71.68 71.68s30.72 71.68 71.68 71.68 71.68-30.72 71.68-71.68-30.72-71.68-71.68-71.68zM1146.88 120.32h-40.96c-15.36 56.32-66.56 102.4-128 102.4-56.32 0-102.4-30.72-122.88-76.8v220.16h296.96v-245.76h-5.12z" />
</font>
</defs>
</svg>
